Земля Санникова фильм скачать торрент

Уважаемый гость, на данной странице Вам доступен материал по теме: Земля Санникова фильм скачать торрент. Скачивание возможно на компьютер и телефон через торрент, а также сервер загрузок по ссылке ниже. Рекомендуем также другие статьи из категории «Торренты».

Земля Санникова фильм скачать торрент.rar
Закачек 1564
Средняя скорость 8190 Kb/s


Земля Санникова

Год выхода: 1973

Страна: СССР

Оригинальное название:

Возраст: для любой зрительской аудитории

Продолжительность: 95 мин. / 01:35

Скачать фильм «Земля Санникова» через торрент бесплатно

Земля Санникова (1973) DVDRip-AVC от New-Team .torrent [Информация о файле (нажмите для просмотра)]

Перевод: не требуется

Видео: 720->1024×436 (2,35:1), 25 fps, H264

1875 kbps avg, 0.239 bit/pixel

Аудио: 48 kHz, Dolby AC3 5.1, 448 kbps

Видео: Идентификатор : 1 Формат : AVC Формат/Информация : Advanced Video Codec Профиль формата : High@L4.1 Параметр CABAC формата : Да Параметр ReFrames формата : 11 кадров Идентификатор кодека : V_MPEG4/ISO/AVC Продолжительность : 1 ч. 29 м. Битрейт : 1875 Кбит/сек Ширина : 720 пикселей Высота : 436 пикселей Соотношение сторон : 2,35:1 Соотношение сторон в оригинале : 2,35:1 Частота кадров : 25,000 кадров/сек Цветовое пространство : YUV Субдискретизация насыщенности : 4:2:0 Битовая глубина : 8 бит Тип развёртки : Прогрессивная Бит/(Пиксели*Кадры) : 0.239 Размер потока : 1,15 Гбайт (79%) Библиотека кодирования : x264 core 130 r2273 b3065e6 Настройки программы : cabac=1 / ref=11 / deblock=1:-2:-1 / analyse=0x3:0x113 / me=umh / subme=9 / psy=1 / psy_rd=1.00:0.20 / mixed_ref=1 / me_range=32 / chroma_me=1 / trellis=1 / 8x8dct=1 / cqm=0 / deadzone=21,11 / fast_pskip=0 / chroma_qp_offset=-3 / threads=3 / lookahead_threads=1 / sliced_threads=0 / nr=0 / decimate=0 / interlaced=0 / bluray_compat=0 / constrained_intra=0 / bframes=8 / b_pyramid=2 / b_adapt=2 / b_bias=0 / direct=3 / weightb=1 / open_gop=0 / weightp=2 / keyint=250 / keyint_min=25 / scenecut=40 / intra_refresh=0 / rc_lookahead=60 / rc=2pass / mbtree=1 / bitrate=1875 / ratetol=1.0 / qcomp=0.60 / qpmin=0 / qpmax=69 / qpstep=4 / cplxblur=20.0 / qblur=0.5 / ip_ratio=1.40 / aq=1:1.00 Default : Да Forced : Нет

Аудио: Идентификатор : 2 Формат : AC-3 Формат/Информация : Audio Coding 3 Расширение режима : CM (complete main) Идентификатор кодека : A_AC3 Продолжительность : 1 ч. 29 м. Вид битрейта : Постоянный Битрейт : 448 Кбит/сек Каналы : 6 каналов Расположение каналов : Front: L C R, Side: L R, LFE Частота : 48,0 КГц Битовая глубина : 16 бит Метод сжатия : С потерями Размер потока : 287 Мбайт (19%) Default : Да Forced : Нет

Земля Санникова (1973) DVDRip от New-Team .torrent [Информация о файле (нажмите для просмотра)]

Перевод: не требуется

Видео: 720×304 (2,35:1), 25 fps, XviD

1023 kbps avg, 0.187 bit/pixel

Аудио: 48 kHz, MP3 2.0, 128 kbps

Видео: Идентификатор : 0 Формат : MPEG-4 Visual Профиль формата : Advanced Simple@L5 Параметр BVOP формата : 1 Параметр QPel формата : Нет Параметр GMC формата : Без точки перехода Параметр матрицы формата : Выборочная Идентификатор кодека : XVID Идентификатор кодека/Подсказка : XviD Продолжительность : 1 ч. 29 м. Битрейт : 1023 Кбит/сек Ширина : 720 пикселей Высота : 304 пикселя Соотношение сторон : 2,35:1 Частота кадров : 25,000 кадров/сек Цветовое пространство : YUV Субдискретизация насыщенности : 4:2:0 Битовая глубина : 8 бит Тип развёртки : Прогрессивная Метод сжатия : С потерями Бит/(Пиксели*Кадры) : 0.187 Размер потока : 656 Мбайт (88%) Библиотека кодирования : XviD 65

Аудио: Идентификатор : 1 Формат : MPEG Audio Версия формата : Version 1 Профиль формата : Layer 3 Идентификатор кодека : 55 Идентификатор кодека/Подсказка : MP3 Продолжительность : 1 ч. 29 м. Вид битрейта : Постоянный Битрейт : 128 Кбит/сек Каналы : 2 канала Частота : 48,0 КГц Метод сжатия : С потерями Размер потока : 82,1 Мбайт (11%) Выравнивание : Соединение по промежуткам Продолжительность промежутка : 40 мс. (1,00 видеокадр) Время предзагрузки промежутка : 504 мс. Библиотека кодирования : L3.99r Настройки программы : -m s -V 4 -q 2 -lowpass 17 -b 128

Земля Санникова (1973) DVDRip от New-Team .torrent [Информация о файле (нажмите для просмотра)]

Перевод: не требуется

Видео: 720×304 (2,35:1), 25 fps, XviD

1868 kbps avg, 0.341 bit/pixel

Аудио: 48 kHz, Dolby AC3 5.1, 448 kbps

Видео: Идентификатор : 0 Формат : MPEG-4 Visual Профиль формата : Advanced Simple@L5 Параметр BVOP формата : 1 Параметр QPel формата : Нет Параметр GMC формата : Без точки перехода Параметр матрицы формата : Выборочная Идентификатор кодека : XVID Идентификатор кодека/Подсказка : XviD Продолжительность : 1 ч. 29 м. Битрейт : 1868 Кбит/сек Ширина : 720 пикселей Высота : 304 пикселя Соотношение сторон : 2,35:1 Частота кадров : 25,000 кадров/сек Цветовое пространство : YUV Субдискретизация насыщенности : 4:2:0 Битовая глубина : 8 бит Тип развёртки : Прогрессивная Метод сжатия : С потерями Бит/(Пиксели*Кадры) : 0.341 Размер потока : 1,17 Гбайт (80%) Библиотека кодирования : XviD 65

Аудио: Идентификатор : 1 Формат : AC-3 Формат/Информация : Audio Coding 3 Расширение режима : CM (complete main) Идентификатор кодека : 2000 Продолжительность : 1 ч. 29 м. Вид битрейта : Постоянный Битрейт : 448 Кбит/сек Каналы : 6 каналов Расположение каналов : Front: L C R, Side: L R, LFE Частота : 48,0 КГц Битовая глубина : 16 бит Метод сжатия : С потерями Размер потока : 287 Мбайт (19%) Выравнивание : Разделение по промежуткам Продолжительность промежутка : 40 мс. (1,00 видеокадр) Время предзагрузки промежутка : 500 мс


Скачать фильм Земля Санникова (1973) через торрент. На этом данная статья подошла к завершению. Следите за обновлениями на нашем сайте. Получить дополнительную информацию, а также задать свои вопросы можно в комментариях.


Статьи по теме