Всадник без Головы фильм скачать торрент

Уважаемый гость, на данной странице Вам доступен материал по теме: Всадник без Головы фильм скачать торрент. Скачивание возможно на компьютер и телефон через торрент, а также сервер загрузок по ссылке ниже. Рекомендуем также другие статьи из категории «Торренты».

Всадник без Головы фильм скачать торрент.rar
Закачек 3625
Средняя скорость 3118 Kb/s


Всадник без головы

Год выхода: 1973

Страна: СССР, Куба

Оригинальное название:

Возраст: зрителям, достигшим 12 лет

Продолжительность: 100 мин. / 01:40

Скачать фильм «Всадник без головы» через торрент бесплатно

Всадник без головы (1973) DVDRip от MediaClub .torrent [Информация о файле (нажмите для просмотра)]

Видео: 1870 Кбит/с, 720×304, 25.000 кадр/с

Аудио: Русский (AC3, 2 ch, 192 Кбит/с)

Всадник без головы (1973) DVDRip-AVC от New-Team .torrent [Информация о файле (нажмите для просмотра)]

Перевод: не требуется

Видео: 720->1024×336 (2.35:1), 25 fps, H264

2010 kbps avg, 0.256 bit/pixel

Аудио: 48 kHz, Dolby AC3 2.0, 192 kbps

Видео: Идентификатор : 1 Формат : AVC Формат/Информация : Advanced Video Codec Профиль формата : High@L4.1 Параметр CABAC формата : Да Параметр ReFrames формата : 11 кадров Идентификатор кодека : V_MPEG4/ISO/AVC Продолжительность : 1 ч. 34 м. Битрейт : 2010 Кбит/сек Ширина : 720 пикселей Высота : 436 пикселей Соотношение сторон : 2,35:1 Частота кадров : 25,000 кадров/сек Цветовое пространство : YUV Субдискретизация насыщенности : 4:2:0 Битовая глубина : 8 бит Тип развёртки : Прогрессивная Бит/(Пиксели*Кадры) : 0.256 Размер потока : 1,30 Гбайт (89%) Библиотека кодирования : x264 core 130 r2273 b3065e6 Настройки программы : cabac=1 / ref=11 / deblock=1:-2:-1 / analyse=0x3:0x113 / me=umh / subme=9 / psy=1 / psy_rd=1.00:0.20 / mixed_ref=1 / me_range=32 / chroma_me=1 / trellis=1 / 8x8dct=1 / cqm=0 / deadzone=21,11 / fast_pskip=0 / chroma_qp_offset=-3 / threads=3 / lookahead_threads=1 / sliced_threads=0 / nr=0 / decimate=0 / interlaced=0 / bluray_compat=0 / constrained_intra=0 / bframes=8 / b_pyramid=2 / b_adapt=2 / b_bias=0 / direct=3 / weightb=1 / open_gop=0 / weightp=2 / keyint=250 / keyint_min=25 / scenecut=40 / intra_refresh=0 / rc_lookahead=60 / rc=2pass / mbtree=1 / bitrate=2010 / ratetol=1.0 / qcomp=0.60 / qpmin=0 / qpmax=69 / qpstep=4 / cplxblur=20.0 / qblur=0.5 / ip_ratio=1.40 / aq=1:1.00 Default : Да Forced : Нет

Аудио: Идентификатор : 2 Формат : AC-3 Формат/Информация : Audio Coding 3 Расширение режима : CM (complete main) Идентификатор кодека : A_AC3 Продолжительность : 1 ч. 34 м. Вид битрейта : Постоянный Битрейт : 192 Кбит/сек Каналы : 2 канала Расположение каналов : Front: L R Частота : 48,0 КГц Битовая глубина : 16 бит Метод сжатия : С потерями Размер потока : 130 Мбайт (9%) Default : Да Forced : Нет

Всадник без головы (1973) DVDRip от New-Team .torrent [Информация о файле (нажмите для просмотра)]

Перевод: не требуется

Видео: 720×304 (2.35:1), 25 fps, XviD

963 kbps avg, 0.176 bit/pixel

Аудио: 48 kHz, MP3 2.0, 128 kbps

Видео: Идентификатор : 0 Формат : MPEG-4 Visual Профиль формата : Advanced Simple@L5 Параметр BVOP формата : 1 Параметр QPel формата : Нет Параметр GMC формата : Без точки перехода Параметр матрицы формата : Выборочная Идентификатор кодека : XVID Идентификатор кодека/Подсказка : XviD Продолжительность : 1 ч. 34 м. Битрейт : 963 Кбит/сек Ширина : 720 пикселей Высота : 304 пикселя Соотношение сторон : 2,35:1 Частота кадров : 25,000 кадров/сек Цветовое пространство : YUV Субдискретизация насыщенности : 4:2:0 Битовая глубина : 8 бит Тип развёртки : Прогрессивная Метод сжатия : С потерями Бит/(Пиксели*Кадры) : 0.176 Размер потока : 652 Мбайт (87%) Библиотека кодирования : XviD 65

Аудио: Идентификатор : 1 Формат : MPEG Audio Версия формата : Version 1 Профиль формата : Layer 3 Идентификатор кодека : 55 Идентификатор кодека/Подсказка : MP3 Продолжительность : 1 ч. 34 м. Вид битрейта : Постоянный Битрейт : 128 Кбит/сек Каналы : 2 канала Частота : 48,0 КГц Метод сжатия : С потерями Размер потока : 86,6 Мбайт (12%) Выравнивание : Соединение по промежуткам Продолжительность промежутка : 40 мс. (1,00 видеокадр) Время предзагрузки промежутка : 504 мс. Библиотека кодирования : L3.99r Настройки программы : -m s -V 4 -q 2 -lowpass 17 -b 128

Всадник без головы (1973) DVDRip от New-Team .torrent [Информация о файле (нажмите для просмотра)]

Перевод: не требуется

Видео: 720×304 (2.35:1), 25 fps, XviD

2003 kbps avg, 0.366 bit/pixel

Аудио: 48 kHz, Dolby AC3 2.0, 192 kbps

Видео: Идентификатор : 0 Формат : MPEG-4 Visual Профиль формата : Advanced Simple@L5 Параметр BVOP формата : 1 Параметр QPel формата : Нет Параметр GMC формата : Без точки перехода Параметр матрицы формата : Выборочная Идентификатор кодека : XVID Идентификатор кодека/Подсказка : XviD Продолжительность : 1 ч. 34 м. Битрейт : 2003 Кбит/сек Ширина : 720 пикселей Высота : 304 пикселя Соотношение сторон : 2,35:1 Частота кадров : 25,000 кадров/сек Цветовое пространство : YUV Субдискретизация насыщенности : 4:2:0 Битовая глубина : 8 бит Тип развёртки : Прогрессивная Метод сжатия : С потерями Бит/(Пиксели*Кадры) : 0.366 Размер потока : 1,32 Гбайт (91%) Библиотека кодирования : XviD 65

Аудио: Идентификатор : 1 Формат : AC-3 Формат/Информация : Audio Coding 3 Расширение режима : CM (complete main) Идентификатор кодека : 2000 Продолжительность : 1 ч. 34 м. Вид битрейта : Постоянный Битрейт : 192 Кбит/сек Каналы : 2 канала Расположение каналов : Front: L R Частота : 48,0 КГц Битовая глубина : 16 бит Метод сжатия : С потерями Размер потока : 130 Мбайт (9%) Выравнивание : Разделение по промежуткам Продолжительность промежутка : 40 мс. (1,00 видеокадр) Время предзагрузки промежутка : 500 мс


Скачать фильм Всадник без головы (1973) через торрент. На этом данная статья подошла к завершению. Следите за обновлениями на нашем сайте. Получить дополнительную информацию, а также задать свои вопросы можно в комментариях.


Статьи по теме