Водительские Права скачать торрент

Уважаемый гость, на данной странице Вам доступен материал по теме: Водительские Права скачать торрент. Скачивание возможно на компьютер и телефон через торрент, а также сервер загрузок по ссылке ниже. Рекомендуем также другие статьи из категории «Торренты».

Водительские Права скачать торрент.rar
Закачек 3325
Средняя скорость 8918 Kb/s


Водительские права

Год выхода: 1988

Страна: США

Режиссер: Грег Биман

Оригинальное название: License to Drive

Скачать фильм «Водительские права» через торрент бесплатно

Водительские права / Право на вождение / License to Drive (1988) BDRip от HQCLUB .torrent [Информация о файле (нажмите для просмотра)]

Перевод: Профессиональный (двухголосый, закадровый) + Оригинал (английский)

Субтитры: английские (SDH)

Качество: BDRip (источник:

Видео: 704×384 (1.83:1), 23.976 fps, XviD build 65

1723 kbps avg, 0.27 bit/pixel

Аудио #1: 48 kHz, AC3 Dolby Digital, 2/0 (L,R) ch,

192 kbps avg (DVO)

Аудио #2: 48 kHz, AC3 Dolby Digital, 3/2 (L,C,R,l,r) + LFE ch,

384 kbps avg (ENG)

Аудио #3: 48 kHz, AC3 Dolby Digital, 3/2 (L,C,R,l,r) + LFE ch,

384 kbps avg (UKR.DVO.NOVYY)(отдельно)

Аудио #4: 48 kHz, AC3 Dolby Digital, 2/0 (L,R) ch,

192 kbps avg (UKR.DVO.1PLUS1)(отдельно)

Аудио #5: 48 kHz, AC3 Dolby Digital, 2/0 (L,R) ch,

192 kbps avg (AVO.GORCHAKOV)(отдельно)

Право на вождение / Водительские права / License to Drive (1988) BDRip от FilmRus .torrent [Информация о файле (нажмите для просмотра)]

Видео: XviD, 1786 Кбит/с, 704×384 Аудио №1: Русский (AC3, 2 ch, 192 Кбит/с) |Двухголосый закадровый| Аудио №2: Русский (AC3, 2 ch, 192 Кбит/с) |Одноголосый закадровый, Василий Горчаков|

Перевод: Профессиональный двухголосый, авторский одноголосый

Право на вождение / Водительские права / License to Drive (1988) BDRip-AVC от 0ptimus | P2, A .torrent [Информация о файле (нажмите для просмотра)]

Перевод: Профессиональный (двухголосый закадровый), авторский (одноголосый закадровый)

Видео: MPEG-4 AVC, 3308 Кбит/с, 1024×556, 23.976 кадр/с

Звук: Аудио #1: Dolby Digital Audio Russian 2.0 / 48 kHz / 192 kbps | DVO Аудио #2: Dolby Digital Audio Russian 2.0 / 48 kHz / 192 kbps | Василий Горчаков Аудио #3: Dolby Digital Audio English 5.1 / 48 kHz / 384 kbps

Видео: Идентификатор : 1 Формат : AVC Формат/Информация : Advanced Video Codec Профиль формата : High@L4.1 Параметр CABAC формата : Да Параметр ReFrames формата : 9 кадров Идентификатор кодека : V_MPEG4/ISO/AVC Битрейт : 3308 Кбит/сек Ширина : 1024 пикселя Высота : 556 пикселей Соотношение сторон : 1,85:1 Режим частоты кадров : Переменный Частота кадров в оригинале : 23,976 кадра/сек Цветовое пространство : YUV Субдискретизация насыщенности : 4:2:0 Битовая глубина : 8 бит Тип развёртки : Прогрессивная Бит/(Пиксели*Кадры) : 0.242 Заголовок : by 0ptimus Библиотека кодирования : x264 core 129 r2230 1cffe9f Настройки программы : cabac=1 / ref=9 / deblock=1:-3:-3 / analyse=0x3:0x113 / me=umh / subme=11 / psy=1 / psy_rd=1.00:0.20 / mixed_ref=1 / me_range=32 / chroma_me=1 / trellis=2 / 8x8dct=1 / cqm=0 / deadzone=21,11 / fast_pskip=0 / chroma_qp_offset=-3 / threads=4 / lookahead_threads=1 / sliced_threads=0 / nr=0 / decimate=0 / interlaced=0 / bluray_compat=0 / constrained_intra=0 / bframes=11 / b_pyramid=2 / b_adapt=2 / b_bias=0 / direct=3 / weightb=1 / open_gop=0 / weightp=2 / keyint=240 / keyint_min=23 / scenecut=40 / intra_refresh=0 / rc_lookahead=40 / rc=2pass / mbtree=0 / bitrate=3308 / ratetol=1.0 / qcomp=0.60 / qpmin=0 / qpmax=69 / qpstep=4 / cplxblur=20.0 / qblur=0.5 / vbv_maxrate=50000 / vbv_bufsize=50000 / nal_hrd=none / ip_ratio=1.40 / pb_ratio=1.30 / aq=1:1.00 Язык : English Default : Да Forced : Да

Аудио #1: Идентификатор : 2 Формат : AC-3 Формат/Информация : Audio Coding 3 Расширение режима : CM (complete main) Параметр Endianness формата : Big Идентификатор кодека : A_AC3 Продолжительность : 1 ч. 29 м. Вид битрейта : Постоянный Битрейт : 192 Кбит/сек Каналы : 2 канала Расположение каналов : Front: L R Частота : 48,0 КГц Битовая глубина : 16 бит Метод сжатия : С потерями Размер потока : 123 Мбайт (5%) Заголовок : Двухголосый Язык : Russian Default : Да Forced : Да

Аудио #2: Идентификатор : 3 Формат : AC-3 Формат/Информация : Audio Coding 3 Расширение режима : CM (complete main) Параметр Endianness формата : Big Идентификатор кодека : A_AC3 Продолжительность : 1 ч. 29 м. Вид битрейта : Постоянный Битрейт : 192 Кбит/сек Каналы : 2 канала Расположение каналов : Front: L R Частота : 48,0 КГц Битовая глубина : 16 бит Метод сжатия : С потерями Размер потока : 123 Мбайт (5%) Заголовок : Авторский [Василий Горчаков] Язык : Russian Default : Нет Forced : Нет

Аудио #3: Идентификатор : 4 Формат : AC-3 Формат/Информация : Audio Coding 3 Расширение режима : CM (complete main) Параметр Endianness формата : Big Идентификатор кодека : A_AC3 Продолжительность : 1 ч. 29 м. Вид битрейта : Постоянный Битрейт : 384 Кбит/сек Каналы : 6 каналов Расположение каналов : Front: L C R, Side: L R, LFE Частота : 48,0 КГц Битовая глубина : 16 бит Метод сжатия : С потерями Размер потока : 247 Мбайт (9%) Язык : English Default : Нет Forced : Нет


Скачать фильм Водительские права (1988) через торрент. На этом данная статья подошла к завершению. Следите за обновлениями на нашем сайте. Получить дополнительную информацию, а также задать свои вопросы можно в комментариях.


Статьи по теме