Скачать торрент Бригада с Дискография

Уважаемый гость, на данной странице Вам доступен материал по теме: Скачать торрент Бригада с Дискография. Скачивание возможно на компьютер и телефон через торрент, а также сервер загрузок по ссылке ниже. Рекомендуем также другие статьи из категории «Торренты».

Скачать торрент Бригада с Дискография.rar
Закачек 2230
Средняя скорость 5622 Kb/s


Бригада С - 8 Альбомов (1988-1998) FLAC, Lossless - Rock

Добавлено: 11 авг 2014, 09:13

Год выпуска: 1988-1998 | Жанр: Rock | Продолжительность: 06:23:32

Кодек: FLAC | Битрейт: Lossless | Тип рипа: image+.cue

1988 — Наутилус Помпилиус и Бригада С (Записи с концертов) ( Винил )

1988 — Ностальгическое танго ( Магнитная лента )

1991 — Аллергии — нет!

1991 — Акция Нонсенс ( Винил )

1992 — Все Это Рок-н-Ролл

1994 — Я Обожаю Jazz (Зэ Бест 1986-1989)

1998 — Легенды Русского Рока

Доп. информация: Альбомы «Наутилус Помпилиус и Бригада С», «Ностальгическое танго» и «Акция Нонсенс» на CD не издавались. В раздаче рипы приведены к формату 16Bit/44kHz.

Ко всем альбомам, кроме «Легенды Русского Рока» (1998), прилагаются коврики.

Год выпуска: 1988

Продолжительность: 00:36:40

Треклист:

01. Эта Музыка Будет Вечной (04:18)

02. Взгляд С Экрана (04:28)

03. Я Хочу Быть С Тобой (04:17)

04. Шар Цвета Хаки (02:55)

05. Круговая Порука (03:46)

06. Я Фантомас (04:47)

07. Наследник Эпохи (03:57)

08. Человек В Шляпе (04:14)

09. Бродяга (03:54)

Цитата:

— Класс состояния винила: Ex+

— Устройство воспроизведения: Thorens TD 810 + Audio-Technica 440MLa

— Фонокорректор: встроенный в усилитель ARCAM DiVA A85

— межблочные кабели: Van Den Hul The First Ultimate и The Second

— АЦП: SB E-MU 1212m

— Программа: MAGIX Samplitude 10

— Формат записи: 24Bit/96kHz

Формат раздачи: 16Bit/44kHz

Код:

Complete name : G:\MusikLossless\Бригада С (1988-1998)\1988 — Наутилус Помпилиус, Бригада С (Винил)\1988 — Наутилус Помпилиус и Бригада С — Записи с концертов.flac

Format/Info : Free Lossless Audio Codec

File size : 242 MiB

Duration : 36mn 40s

Overall bit rate mode : Variable

Overall bit rate : 924 Kbps

Album : Записи с концертов

Track name/Total : 9

Performer : Наутилус Помпилиус и Бригада С

Recorded date : 1988

cuesheet : REM GENRE Rock / REM DATE 1988 / PERFORMER «Наутилус Помпилиус и Бригада С» / TITLE «Записи с концертов» / FILE «1988 — Наутилус Помпилиус и Бригада С — Записи с концертов.wv» WAVE / TRACK 01 AUDIO / TITLE «Эта Музыка Будет Вечной» / INDEX 01 00:00:00 / TRACK 02 AUDIO / TITLE «Взгляд С Экрана» / INDEX 01 04:18:50 / TRACK 03 AUDIO / TITLE «Я Хочу Быть С Тобой» / INDEX 01 08:47:00 / TRACK 04 AUDIO / TITLE «Шар Цвета Хаки» / INDEX 01 13:04:50 / TRACK 05 AUDIO / TITLE «Круговая Порука» / INDEX 01 16:00:00 / TRACK 06 AUDIO / TITLE «Я Фантомас» / INDEX 01 19:46:45 / TRACK 07 AUDIO / TITLE «Наследник Эпохи» / INDEX 01 24:33:65 / TRACK 08 AUDIO / TITLE «Человек В Шляпе» / INDEX 01 28:31:30 / TRACK 09 AUDIO / TITLE «Бродяга» / INDEX 01 32:46:20

Format/Info : Free Lossless Audio Codec

Duration : 36mn 40s

Bit rate mode : Variable

Bit rate : 924 Kbps

Channel(s) : 2 channels

Sampling rate : 44.1 KHz

Bit depth : 16 bits

Stream size : 242 MiB (100%)

Writing library : libFLAC 1.2.1 (UTC 2007-09-17)


Бригада С — 8 Альбомов (1988-1998) FLAC, Lossless — Rock — скачать через торрент бесплатно. На этом данная статья подошла к завершению. Следите за обновлениями на нашем сайте. Получить дополнительную информацию, а также задать свои вопросы можно в комментариях.


Статьи по теме