Скачать Счастье Разведчика через торрент

Уважаемый гость, на данной странице Вам доступен материал по теме: Скачать Счастье Разведчика через торрент. Скачивание возможно на компьютер и телефон через торрент, а также сервер загрузок по ссылке ниже. Рекомендуем также другие статьи из категории «Торренты».

Скачать Счастье Разведчика через торрент.rar
Закачек 3617
Средняя скорость 2692 Kb/s


Скачать Поединки

Поединки. Счастье разведчика (2009) SATRip [фильм 1 из 10] Название: Поединки. Счастье разведчика

Режиссер: Стас Довжик, Александр Сидоров

Год выпуска: 2009

Производство: Студия Артель, Россия

Полковник Внешней разведки России – Алексей Ботян – человек счастливейшей судьбы. Его биография не только необычна, она уникальна и не имеет аналогов в истории не только российских, но и мировых спецслужб. Он прослужил в разведке около пятидесяти лет, практически с первых дней Великой Отечественной войны, лично провел и участвовал в нескольких десятках важнейших и опаснейших операциях. И ему удалось выжить! Его коллеги считают, что всю жизнь, он был везунчиком. Ему везло и он выживал там где другие не выживают. В фильме рассказано о нескольких опаснейших и успешных операциях Ботяна, которые вошли в российские закрытые учебники по ведению разведдеятельности. Герой не только действует, но и размышляет о специфике работы разведчика — диверсанта. За свои операции в течение почти полувека Алексей Ботян трижды (!) представлялся к званию Героя Советского Союза. И только в 2007 году, спустя 54 года после первого представления, как говорят, «награда нашла своего героя».

В ролях: Александр Олешко, Алексей Лонгин, Илья Коврижных, Сергей Василюк, Константин Силаков, Юрий Круглов, Александр Чмелев

Битрейт видео: 1281 Кбит/с, 25 кадр/сек

Размер кадра: 640×368, (16:9)

Качество видео: SATRip

Битрейт аудио: 128 Кбит/сек, 48,0 КГц, 2 Сh

[font:7ee01362f1=»Georgia»](Rip by Barklay)

Полное имя : D:\Poedinki_2009_XviD_SATRip.avi

Формат/Информация : Audio Video Interleave

Размер файла : 895 Мбайт

Продолжительность : 1 ч. 28 м.

Общий поток : 1416 Кбит/сек

Программа кодирования : VirtualDubMod 1.5.4.1 (build 2178/release)

Библиотека кодирования : VirtualDubMod build 2178/release

Формат : MPEG-4 Visual

Профиль формата : Advanced Simple@L5

Параметр BVOP формата : Да

Параметр QPel формата : Нет

Параметр GMC формата : Без точки перехода

Параметр матрицы формата : Выборочная

Идентификатор кодека : XVID

Идентификатор кодека/Подсказка : XviD

Продолжительность : 1 ч. 28 м.

Битрейт : 1281 Кбит/сек

Ширина : 640 пикс.

Высота : 368 пикс.

Соотношение сторон : 16:9

Частота кадров : 25,000 кадр/сек

Цветовое пространство : YUV

Подвыборка цветности : 4:2:0

Битовая глубина : 8 бит

Тип развёртки : Прогрессивная

Метод сжатия : С потерями

Размер потока : 810 Мбайт (90%)

Библиотека кодирования : XviD 1.2.1 (UTC 2008-12-04)

Формат : MPEG Audio

Версия формата : Version 1

Профиль формата : Layer 3

Режим : Joint stereo

Расширение режима : MS Stereo

Идентификатор кодека : 55

Идентификатор кодека/Подсказка : MP3

Продолжительность : 1 ч. 28 м.

Вид битрейта : Постоянный

Битрейт : 128 Кбит/сек

Канал(ы) : 2 канала(ов)

Частота : 48,0 КГц

Метод сжатия : С потерями

Размер потока : 80,9 Мбайт (9%)

Выравнивание : Разделение по промежуткам

Продолжительность промежутка : 80 мс. (2,00 видеокадров)


Скачать Поединки. На этом данная статья подошла к завершению. Следите за обновлениями на нашем сайте. Получить дополнительную информацию, а также задать свои вопросы можно в комментариях.


Статьи по теме