Скачать фильм Ловушка для Родителей торрент

Уважаемый гость, на данной странице Вам доступен материал по теме: Скачать фильм Ловушка для Родителей торрент. Скачивание возможно на компьютер и телефон через торрент, а также сервер загрузок по ссылке ниже. Рекомендуем также другие статьи из категории «Торренты».

Скачать фильм Ловушка для Родителей торрент.rar
Закачек 1176
Средняя скорость 3195 Kb/s


Ловушка для родителей

Год выхода: 1998

Страна: США

Режиссер: Нэнси Майерс

Оригинальное название: The Parent Trap

Возраст: для любой зрительской аудитории

Продолжительность: 128 мин. / 02:08

Скачать фильм «Ловушка для родителей» через торрент бесплатно

Ловушка для родителей / The Parent Trap (1998) WEB-DLRip от GeneralFilm | P .torrent [Информация о файле (нажмите для просмотра)]

Качество: WEB-DLRipисходник (WEB-DL 720p.)

Видео: XviD, 1661 Кбит/с, 720×384

Аудио 1: Русский, AC3, 6 ch, 384 Кбит/с | Профессиональный (многоголосый) Видеосервис

Аудио 2: Английский, AC3, 6 ch, 384 Кбит/с | Оригинал

Перевод: Профессиональный (многоголосый)

Ловушка для родителей / The Parent Trap (1998) WEB-DL 720p | P, A .torrent [Информация о файле (нажмите для просмотра)]

Перевод: Профессиональный (многоголосый, закадровый) — СТС

Качество: WEB-DL 720p

Видео: 1280×692 at 23.976 fps, MPEG-4 AVC,

Аудио#1: Russian: 48 kHz, AC3, 2/0 (L,R) ch,

192.00 kbps avg |Многоголосый закадровый, СТС|

Аудио#2: Russian: 48 kHz, AC3, 2/0 (L,R) ch,

192.00 kbps avg |Многоголосый закадровый, Видеосервис|

Аудио#3: Russian: 48 kHz, AC3, 2/0 (L,R) ch,

192.00 kbps avg |Многоголосый закадровый, ОРТ|

Аудио#4: Russian: 48 kHz, AC3, 3/2 (L,C,R,l,r) + LFE ch,

448.00 kbps avg |Одноголосый закадровый, Сергей Визгунов|

Аудио#5: Russian: 48 kHz, AC3, 2/0 (L,R) ch,

192.00 kbps avg |Одноголосый закадровый, Александр Кашкин|

Аудио#6: English: 48 kHz, AC3, 3/2 (L,C,R,l,r) + LFE ch,

448.00 kbps avg |Оригинал|

Субтитры: Russian (Full), English (Full)

Ловушка для родителей / The Parent Trap (1998) WEB-DLRip-AVC от NovaLan .torrent [Информация о файле (нажмите для просмотра)]

Перевод: Профессиональный многоголосый, профессиональный двухголосый, авторский одноголосый

Кодек: MPEG-4 AVC

Видео: 2793 Кбит/с, 1024×552

Звук: Русский (AC3, 2 ch, 192 Кбит/с), (AC3, 6 ch, 448 Кбит/c), английский (AC3, 6 ch, 448 Кбит/c)

Субтитры: Русские, английские

Видео: Идентификатор : 1 Формат : AVC Формат/Информация : Advanced Video Codec Профиль формата : High@L4.1 Параметр CABAC формата : Да Параметр ReFrames формата : 9 кадров Идентификатор кодека : V_MPEG4/ISO/AVC Продолжительность : 2 ч. 8 м. Битрейт : 2793 Кбит/сек Ширина : 1024 пикселя Высота : 552 пикселя Соотношение сторон : 1,85:1 Режим частоты кадров : Постоянный Частота кадров : 23,976 кадра/сек Цветовое пространство : YUV Субдискретизация насыщенности : 4:2:0 Битовая глубина : 8 бит Тип развёртки : Прогрессивная Бит/(Пиксели*Кадры) : 0.206 Размер потока : 2,42 Гбайт (61%) Заголовок : The.Parent.Trap.1998.×264.WEB-DLRip.(AVC).by.StarbirS Библиотека кодирования : x264 core 142 r2431 ac76440 Настройки программы : cabac=1 / ref=9 / deblock=1:-2:-2 / analyse=0x3:0x113 / me=umh / subme=11 / psy=1 / psy_rd=1.10:0.15 / mixed_ref=1 / me_range=48 / chroma_me=1 / trellis=2 / 8x8dct=1 / cqm=0 / deadzone=21,11 / fast_pskip=0 / chroma_qp_offset=-3 / threads=12 / lookahead_threads=4 / sliced_threads=0 / nr=0 / decimate=0 / interlaced=0 / bluray_compat=0 / constrained_intra=0 / bframes=8 / b_pyramid=2 / b_adapt=2 / b_bias=0 / direct=3 / weightb=1 / open_gop=0 / weightp=2 / keyint=240 / keyint_min=23 / scenecut=40 / intra_refresh=0 / rc=2pass / mbtree=0 / bitrate=2793 / ratetol=1.0 / qcomp=0.65 / qpmin=0 / qpmax=69 / qpstep=4 / cplxblur=20.0 / qblur=0.5 / ip_ratio=1.40 / pb_ratio=1.30 / aq=1:1.10 Язык : English Default : Да Forced : Нет DURATION : 02:08:14.324000000 NUMBER_OF_FRAMES : 184479 NUMBER_OF_BYTES : 2686053146 _STATISTICS_WRITING_APP : mkvmerge v7.3.0 (‘Nouages’) 64bit built on Oct 22 2014 18:53:34 _STATISTICS_WRITING_DATE_UTC : 2014-12-17 17:30:33 _STATISTICS_TAGS : BPS DURATION NUMBER_OF_FRAMES NUMBER_OF_BYTES

Аудио #1: Идентификатор : 2 Формат : AC-3 Формат/Информация : Audio Coding 3 Расширение режима : CM (complete main) Параметр Endianness формата : Big Идентификатор кодека : A_AC3 Продолжительность : 2 ч. 8 м. Вид битрейта : Постоянный Битрейт : 192 Кбит/сек Каналы : 2 канала Расположение каналов : Front: L R Частота : 48,0 КГц Битовая глубина : 16 бит Метод сжатия : С потерями Размер потока : 176 Мбайт (4%) Заголовок : Профессиональный многоголосый (CTC) Язык : Russian Default : Да Forced : Нет

Аудио #2: Идентификатор : 3 Формат : AC-3 Формат/Информация : Audio Coding 3 Расширение режима : CM (complete main) Параметр Endianness формата : Big Идентификатор кодека : A_AC3 Продолжительность : 2 ч. 8 м. Вид битрейта : Постоянный Битрейт : 192 Кбит/сек Каналы : 2 канала Расположение каналов : Front: L R Частота : 48,0 КГц Битовая глубина : 16 бит Метод сжатия : С потерями Размер потока : 176 Мбайт (4%) Заголовок : Профессиональный многоголосый (OРТ) Язык : Russian Default : Нет Forced : Нет

Аудио #3: Идентификатор : 4 Формат : AC-3 Формат/Информация : Audio Coding 3 Расширение режима : CM (complete main) Параметр Endianness формата : Big Идентификатор кодека : A_AC3 Продолжительность : 2 ч. 8 м. Вид битрейта : Постоянный Битрейт : 192 Кбит/сек Каналы : 2 канала Расположение каналов : Front: L R Частота : 48,0 КГц Битовая глубина : 16 бит Метод сжатия : С потерями Размер потока : 176 Мбайт (4%) Заголовок : Профессиональный двухголосый (Видеосервис) Язык : Russian Default : Нет Forced : Нет

Аудио #4: Идентификатор : 5 Формат : AC-3 Формат/Информация : Audio Coding 3 Расширение режима : CM (complete main) Параметр Endianness формата : Big Идентификатор кодека : A_AC3 Продолжительность : 2 ч. 8 м. Вид битрейта : Постоянный Битрейт : 448 Кбит/сек Каналы : 6 каналов Расположение каналов : Front: L C R, Side: L R, LFE Частота : 48,0 КГц Битовая глубина : 16 бит Метод сжатия : С потерями Размер потока : 411 Мбайт (10%) Заголовок : Авторский одноголосый (С. Визгунов) Язык : Russian Default : Нет Forced : Нет

Аудио #5: Идентификатор : 6 Формат : AC-3 Формат/Информация : Audio Coding 3 Расширение режима : CM (complete main) Параметр Endianness формата : Big Идентификатор кодека : A_AC3 Продолжительность : 2 ч. 8 м. Вид битрейта : Постоянный Битрейт : 192 Кбит/сек Каналы : 2 канала Расположение каналов : Front: L R Частота : 48,0 КГц Битовая глубина : 16 бит Метод сжатия : С потерями Размер потока : 176 Мбайт (4%) Заголовок : Авторский одноголосый (А. Кашкин) Язык : Russian Default : Нет Forced : Нет

Аудио #6: Идентификатор : 7 Формат : AC-3 Формат/Информация : Audio Coding 3 Расширение режима : CM (complete main) Параметр Endianness формата : Big Идентификатор кодека : A_AC3 Продолжительность : 2 ч. 8 м. Вид битрейта : Постоянный Битрейт : 448 Кбит/сек Каналы : 6 каналов Расположение каналов : Front: L C R, Side: L R, LFE Частота : 48,0 КГц Битовая глубина : 16 бит Метод сжатия : С потерями Размер потока : 411 Мбайт (10%) Язык : English Default : Нет Forced : Нет


Скачать фильм Ловушка для родителей (1998) через торрент. На этом данная статья подошла к завершению. Следите за обновлениями на нашем сайте. Получить дополнительную информацию, а также задать свои вопросы можно в комментариях.


Статьи по теме