Ради Жизни на Земле скачать торрент

Уважаемый гость, на данной странице Вам доступен материал по теме: Ради Жизни на Земле скачать торрент. Скачивание возможно на компьютер и телефон через торрент, а также сервер загрузок по ссылке ниже. Рекомендуем также другие статьи из категории «Торренты».

Ради Жизни на Земле скачать торрент.rar
Закачек 1458
Средняя скорость 9428 Kb/s


Скачать Высокое звание: Фильм второй - Ради жизни на земле (1973) VHSRip

Высокое звание: Фильм второй — Ради жизни на земле (1973) VHSRip Год выпуска: 1973

Жанр: Военный, Драма

Эпическое кинополотно о Герое Советского Союза генерале Шаповалове. Потеряв в годы войны сына и лучшего друга — командира Гайдабуру, он встречает в конце войны любимую женщину, которую считал погибшей…

Режиссер: Евгений Карелов

Актеры: Евгений Матвеев, Валентина Малявина, Дмитрий Франько, Армен Джигарханян, Хорст Пройскер, Хельмут Шрайбер, Семен Морозов, Борис Токарев, Евгений Буренков, Владимир Кашпур, Афанасий Кочетков, Юрий Леонидов, Николай Лебедев, Алексей Эйбоженко

Размер кадра: 704 х 400

Качество видео: VHSRip

Аудиокодек: MP3, 1 канал

Тех. данные MediaInfo

Полное имя : D:\torrent\Ради жизни на земле[torrents43.com]\Ради жизни на земле[torrents43.com].avi

Формат/Информация : Audio Video Interleave

Размер файла : 1,07 Гбайт

Продолжительность : 1 ч. 28 м.

Общий поток : 1729 Кбит/сек

Программа кодирования : VirtualDubMod 1.5.10.2 (build 2540/release)

Библиотека кодирования : VirtualDubMod build 2540/release

Формат : MPEG-4 Visual

Профиль формата : Advanced Simple@L5

Параметр BVOP формата : Нет

Параметр QPel формата : Да

Параметр GMC формата : 3 точки перехода

Параметр матрицы формата : Default (H.263)

Идентификатор кодека : XVID

Идентификатор кодека/Подсказка : XviD

Продолжительность : 1 ч. 28 м.

Битрейт : 1595 Кбит/сек

Ширина : 704 пикселя

Высота : 400 пикселей

Соотношение сторон : 16:9

Частота кадров : 25,000 кадров/сек

Цветовое пространство : YUV

Субдискретизация насыщенности : 4:2:0

Битовая глубина : 8 бит

Тип развёртки : Прогрессивная

Метод сжатия : С потерями

Размер потока : 1012 Мбайт (92%)

Библиотека кодирования : XviD 1.2.1 (UTC 2008-12-04)

Формат : MPEG Audio

Версия формата : Version 1

Профиль формата : Layer 3

Идентификатор кодека : 55

Идентификатор кодека/Подсказка : MP3

Продолжительность : 1 ч. 28 м.

Вид битрейта : Постоянный

Битрейт : 128 Кбит/сек

Каналы : 1 канал

Частота : 44,1 КГц

Метод сжатия : С потерями

Размер потока : 81,2 Мбайт (7%)

Выравнивание : Разделение по промежуткам

Продолжительность промежутка : 120 мс. (3,00 видеокадра)


Скачать Высокое звание: Фильм второй — Ради жизни на земле (1973) VHSRip. На этом данная статья подошла к завершению. Следите за обновлениями на нашем сайте. Получить дополнительную информацию, а также задать свои вопросы можно в комментариях.


Статьи по теме