Новогоднее Путешествие скачать торрент мультфильм

Уважаемый гость, на данной странице Вам доступен материал по теме: Новогоднее Путешествие скачать торрент мультфильм. Скачивание возможно на компьютер и телефон через торрент, а также сервер загрузок по ссылке ниже. Рекомендуем также другие статьи из категории «Торренты».

Новогоднее Путешествие скачать торрент мультфильм.rar
Закачек 2759
Средняя скорость 3608 Kb/s


Скачать Новогоднее путешествие (1959) DVDRip

Новогоднее путешествие (1959) DVDRip Русское название: Новогоднее путешествие

Год выпуска: 1959

Сказка о мальчике, который пытался в новогоднюю ночь с помощью деда Мороза привезти своему папе-полярнику из Москвы в Антарктиду новогоднюю елку. Но волшебство кончилось, а ему не удалось выполнить свое намерение. Однако, елка у папы все-таки оказалась.

Качество видео: DVDRip

Видеокодек: DivX 5

Размер кадра: 704×552

Аудиокодек: MP3, 1 ch

Полное имя : G:\Мультфильмы\Советские мультфильмы\Н\Новогоднее путешествие.avi

Формат/Информация : Audio Video Interleave

Размер файла : 171 Мбайт

Продолжительность : 10 м.

Общий поток : 2321 Кбит/сек

Программа кодирования : VirtualDubMod 1.5.10.2 (build 2542/release)

Библиотека кодирования : VirtualDubMod build 2542/release

Формат : MPEG-4 Visual

Параметр BVOP формата : 1

Параметр QPel формата : Нет

Параметр GMC формата : Без точки перехода

Параметр матрицы формата : Default (H.263)

Режим смешивания : Сжатый битовый поток

Идентификатор кодека : DX50

Идентификатор кодека/Подсказка : DivX 5

Продолжительность : 10 м.

Битрейт : 2199 Кбит/сек

Ширина : 704 пикс.

Высота : 552 пикс.

Соотношение сторон : 1,275

Частота кадров : 25,000 кадр/сек

Цветовое пространство : YUV

Подвыборка цветности : 4:2:0

Битовая глубина : 8 бит

Тип развёртки : Прогрессивная

Метод сжатия : С потерями

Размер потока : 162 Мбайт (95%)

Библиотека кодирования : DivX 6.8.0 (UTC 2007-12-04)

Формат : MPEG Audio

Версия формата : Version 1

Профиль формата : Layer 3

Идентификатор кодека : 55

Идентификатор кодека/Подсказка : MP3

Продолжительность : 10 м.

Вид битрейта : Постоянный

Битрейт : 112 Кбит/сек

Канал(ы) : 1 канал

Частота : 48,0 КГц

Метод сжатия : С потерями

Размер потока : 8,23 Мбайт (5%)

Выравнивание : Соединение по промежуткам

Продолжительность промежутка : 40 мс. (1,00 видеокадр)

Время предзагрузки промежутка : 504 ms

Библиотека кодирования : LAME3.97

Настройки программы : -m m -V 4 -q 0 -b 112


Скачать Новогоднее путешествие (1959) DVDRip. На этом данная статья подошла к завершению. Следите за обновлениями на нашем сайте. Получить дополнительную информацию, а также задать свои вопросы можно в комментариях.


Статьи по теме