Ледяной Шторм скачать торрент

Уважаемый гость, на данной странице Вам доступен материал по теме: Ледяной Шторм скачать торрент. Скачивание возможно на компьютер и телефон через торрент, а также сервер загрузок по ссылке ниже. Рекомендуем также другие статьи из категории «Торренты».

Ледяной Шторм скачать торрент.rar
Закачек 3012
Средняя скорость 5858 Kb/s


Ледяной шторм

Год выхода: 2009

Оригинальное название: Ice Twisters

Возраст: зрителям, достигшим 16 лет

Продолжительность: 91 мин.

Скачать фильм «Ледяной шторм» через торрент бесплатно

Ледяной шторм / Ледяной смерч / Ice Twisters (2009) BDRip-AVC от ExKinoRay | P, P2 | Лицензия .torrent [Информация о файле (нажмите для просмотра)]

Перевод 1: Russian: 48 kHz, AC3, 2/0 (L,R) ch,

192.00 kbps avg |Профессиональный двухголосый закадровый, R5|

Перевод 2: Russian: 48 kHz, AC3, 2/0 (L,R) ch,

192.00 kbps avg |Профессиональный многоголосый закадровый, ТВ3|

Перевод 3: Ukrainian: 48 kHz, AC3, 2/0 (L,R) ch,

192.00 kbps avg |Профессиональный многоголосый, Так Треба Продакшен|

Видео: MPEG-4 AVC, 2140 Кбит/с, 1024×576, 23.976 кадр/с

Аудио: Русский, украинский (AC3, 2 ch, 192 Кбит/с), английский (AC3, 6 ch, 448 Кбит/с)

Видео: Идентификатор : 1 Формат : AVC Формат/Информация : Advanced Video Codec Профиль формата : High@L4.1 Параметр CABAC формата : Да Параметр ReFrames формата : 9 кадров Режим смешивания : Container profile=Unknown@4.1 Идентификатор кодека : V_MPEG4/ISO/AVC Продолжительность : 2 ч. 35 м. Битрейт : 970 Кбит/сек Номинальный битрейт : 2140 Кбит/сек Ширина : 1024 пикселей Высота : 576 пикселей Соотношение сторон : 16:9 Частота кадров : 23,976 кадра/сек Разрешение : 24 бит Колориметрия : 4:2:0 Тип развёртки : Прогрессивная Бит/(Пиксели*Кадры) : 0.069 Размер потока : 1,05 Гбайт (48%) Библиотека кодирования : x264 core 125 r2200 999b753 Настройки программы : cabac=1 / ref=9 / deblock=1:-2:-2 / analyse=0x3:0x133 / me=umh / subme=11 / psy=1 / psy_rd=1.00:0.00 / mixed_ref=1 / me_range=32 / chroma_me=1 / trellis=2 / 8x8dct=1 / cqm=0 / deadzone=21,11 / fast_pskip=0 / chroma_qp_offset=-2 / threads=12 / lookahead_threads=2 / sliced_threads=0 / nr=0 / decimate=0 / interlaced=0 / bluray_compat=0 / constrained_intra=0 / bframes=9 / b_pyramid=2 / b_adapt=1 / b_bias=0 / direct=3 / weightb=1 / open_gop=0 / weightp=2 / keyint=240 / keyint_min=23 / scenecut=40 / intra_refresh=0 / rc_lookahead=80 / rc=2pass / mbtree=1 / bitrate=2140 / ratetol=1.0 / qcomp=0.60 / qpmin=0 / qpmax=69 / qpstep=4 / cplxblur=20.0 / qblur=0.5 / ip_ratio=1.40 / aq=1:1.00

Аудио #1: Идентификатор : 2 Формат : AC-3 Формат/Информация : Audio Coding 3 Идентификатор кодека : A_AC3 Продолжительность : 2 ч. 35 м. Вид битрейта : Постоянный Битрейт : 192 Кбит/сек Каналы : 2 канала Расположение каналов : L R Частота : 48,0 КГц Размер потока : 214 Мбайт (9%) Заголовок : Профессиональный двухголосый — R5 Язык : Russian

Аудио #2: Идентификатор : 3 Формат : AC-3 Формат/Информация : Audio Coding 3 Идентификатор кодека : A_AC3 Продолжительность : 2 ч. 35 м. Вид битрейта : Постоянный Битрейт : 192 Кбит/сек Каналы : 2 канала Расположение каналов : L R Частота : 48,0 КГц Размер потока : 214 Мбайт (9%) Заголовок : Профессиональный многоголосый — ТВ3 Язык : Russian

Аудио #3: Идентификатор : 4 Формат : AC-3 Формат/Информация : Audio Coding 3 Идентификатор кодека : A_AC3 Продолжительность : 2 ч. 35 м. Вид битрейта : Постоянный Битрейт : 192 Кбит/сек Каналы : 2 канала Расположение каналов : L R Частота : 48,0 КГц Размер потока : 214 Мбайт (9%) Заголовок : Профессиональный многоголосый — Так Треба Продакшен Язык : Ukrainian

Аудио #4: Идентификатор : 5 Формат : AC-3 Формат/Информация : Audio Coding 3 Идентификатор кодека : A_AC3 Продолжительность : 2 ч. 35 м. Вид битрейта : Постоянный Битрейт : 448 Кбит/сек Каналы : 6 каналов Расположение каналов : Front: L C R, Surround: L R, LFE Частота : 48,0 КГц Размер потока : 499 Мбайт (22%)

Ледяной шторм / Ice Twisters (2009) BDRip от Rulya74 | P, P2 | лицензия .torrent [Информация о файле (нажмите для просмотра)]

Перевод: Профессиональный (многоголосый закадровый) ТВ3 + Профессиональный (многоголосый закадровый) — (Украинский — Так Треба Продакшен) + Профессиональный (двухголосый закадровый) R5 / внешняя + Оригинал (Английский) / внешняя

Видео: 720×400 (16:9), 23.976 fps, XviD MPEG-4


Скачать фильм Ледяной шторм (2009) через торрент. На этом данная статья подошла к завершению. Следите за обновлениями на нашем сайте. Получить дополнительную информацию, а также задать свои вопросы можно в комментариях.


Статьи по теме