Гравити Фолз с Субтитрами скачать

Уважаемый гость, на данной странице Вам доступен материал по теме: Гравити Фолз с Субтитрами скачать. Скачивание возможно на компьютер и телефон через торрент, а также сервер загрузок по ссылке ниже. Рекомендуем также другие статьи из категории «Разное».

Гравити Фолз с Субтитрами скачать.rar
Закачек 1747
Средняя скорость 9823 Kb/s


Гравити Фолз (1 сезон, 1-20 серии из 20)

Перевод: Профессиональный (полное дублирование)

Субтитры: русские, английские

Формат: WEB-DL, MKV, H.264, AC3

Жанр: мультфильм, комедия, детектив, приключения, семейный

Продолжительность: 20х 00:20:00

Год выпуска: 2012

5226 Kbps avg, 0.101 bit/pixel

Аудио#1: Русский 48 kHz, AC3, 2 ch

192 Kbps [Профессиональный (полное дублирование)(Disney / Кириллица)]

Аудио#2: Русский 48 kHz, AC3, 2 ch

192 Kbps [Любительский (одноголосый)(Сыендук)]

Аудио#3: Украинский 48 kHz, AC3, 2 ch

192 Kbps [Профессиональный (полное дублирование)(Disney / Le Doyen)]

Аудио#4: Английский 48 kHz, AC3, 2 ch

192 Kbps [Оригинал]

Все раздачи сериала

Уникальный идентификатор : 172147000096730242416851871580960264817 (0x81824E653CFB6FB2B95C379F11231271)

Полное имя : F:TREKERТЕМРgravity_falls_s01_[tfile.ru]gravity_falls_s01_e01_[tfile.ru].mkv

Версия формата : Version 2

Размер файла : 887 Мбайт

Продолжительность : 20 м.

Общий поток : 6116 Кбит/сек

Название фильма : gravity_falls_s01

Дата кодирования : UTC 2015-11-29 16:30:04

Программа кодирования : mkvmerge v4.0.0 (‘The Stars were mine’) сборка от Jun 6 2010 16:18:42

Библиотека кодирования : libebml v1.0.0 + libmatroska v1.0.0

Формат/Информация : Advanced Video Codec

Профиль формата : High@L4

Параметр CABAC формата : Да

Параметр ReFrames формата : 4 кадра

Идентификатор кодека : V_MPEG4/ISO/AVC

Продолжительность : 20 м.

Битрейт : 5226 Кбит/сек

Ширина : 1916 пикселей

Высота : 1076 пикселей

Соотношение сторон : 16:9

Режим частоты кадров : Постоянный

Частота кадров : 25,000 кадров/сек

Цветовое пространство : YUV

Субдискретизация насыщенности : 4:2:0

Битовая глубина : 8 бит

Тип развёртки : Прогрессивная

Размер потока : 758 Мбайт (85%)

Цветовой диапазон : Limited

Основные цвета : BT.709

Характеристики трансфера : BT.709

Коэффициенты матрицы : BT.709

Формат/Информация : Audio Coding 3

Расширение режима : CM (complete main)

Параметр Endianness формата : Big

Идентификатор кодека : A_AC3

Продолжительность : 20 м.

Вид битрейта : Постоянный

Битрейт : 192 Кбит/сек

Каналы : 2 канала

Расположение каналов : Front: L R

Частота : 48,0 КГц

Метод сжатия : С потерями

Размер потока : 27,9 Мбайт (3%)

Заголовок : Профессиональный (полное дублирование)(Disney / Кириллица)

Формат/Информация : Audio Coding 3

Расширение режима : CM (complete main)

Параметр Endianness формата : Big

Идентификатор кодека : A_AC3

Продолжительность : 20 м.

Вид битрейта : Постоянный

Битрейт : 192 Кбит/сек

Каналы : 2 канала

Расположение каналов : Front: L R

Частота : 48,0 КГц

Метод сжатия : С потерями

Размер потока : 27,9 Мбайт (3%)

Заголовок : Профессиональный (полное дублирование)(Disney / Le Doyen)

Формат/Информация : Audio Coding 3

Расширение режима : CM (complete main)

Параметр Endianness формата : Big

Идентификатор кодека : A_AC3

Продолжительность : 20 м.

Вид битрейта : Постоянный

Битрейт : 192 Кбит/сек

Каналы : 2 канала

Расположение каналов : Front: L R

Частота : 48,0 КГц

Метод сжатия : С потерями

Размер потока : 27,9 Мбайт (3%)

Заголовок : [Любительский (одноголосый)(Сыендук)

Формат/Информация : Audio Coding 3

Расширение режима : CM (complete main)

Параметр Endianness формата : Big

Идентификатор кодека : A_AC3

Продолжительность : 20 м.

Вид битрейта : Постоянный

Битрейт : 192 Кбит/сек

Каналы : 2 канала

Расположение каналов : Front: L R

Частота : 48,0 КГц

Метод сжатия : С потерями

Размер потока : 27,9 Мбайт (3%)

Идентификатор кодека : S_TEXT/UTF8

Идентификатор кодека/Информация : UTF-8 Plain Text

Идентификатор кодека : S_TEXT/UTF8

Идентификатор кодека/Информация : UTF-8 Plain Text


Гравити Фолз (1 сезон, 1-20 серии из 20). На этом данная статья подошла к завершению. Следите за обновлениями на нашем сайте. Получить дополнительную информацию, а также задать свои вопросы можно в комментариях.


Статьи по теме