Гарри и Хендерсоны скачать торрент

Уважаемый гость, на данной странице Вам доступен материал по теме: Гарри и Хендерсоны скачать торрент. Скачивание возможно на компьютер и телефон через торрент, а также сервер загрузок по ссылке ниже. Рекомендуем также другие статьи из категории «Торренты».

Гарри и Хендерсоны скачать торрент.rar
Закачек 3327
Средняя скорость 6222 Kb/s


Гарри и Хендерсоны

Год выхода: 1987

Страна: США

Режиссер: Уильям Дир

Оригинальное название: Harry and the Hendersons

Возраст: зрителям, достигшим 12 лет

Продолжительность: 110 мин. / 01:50

Скачать фильм «Гарри и Хендерсоны» через торрент бесплатно

Гарри и Хендерсоны / Harry and the Hendersons (1987) BDRip 1080p от MediaClub | P .torrent [Информация о файле (нажмите для просмотра)]

Перевод: Профессиональный многоголосый

Качество: BDRip 1080p

Видео: MPEG-4 AVC, 7500 Кбит/с, 1916×1036, 23.976 кадр/с

Аудио #1: Русский (AC3, 2 ch, 224 Кбит/с) / Профессиональный многоголосый (НТВ+)

Аудио #2: Русский (AC3, 2 ch, 192 Кбит/с) / Профессиональный многоголосый (ОРТ)

Аудио #3: Украинский (AC3, 2 ch, 192 Кбит/с) / Профессиональный двухголосый (1+1)

Аудио #4: Английский (DTS, 6 ch, 1509 Кбит/с)

Видео: Идентификатор : 1 Формат : AVC Формат/Информация : Advanced Video Codec Профиль формата : High@L4.1 Параметр CABAC формата : Да Параметр ReFrames формата : 4 кадра Идентификатор кодека : V_MPEG4/ISO/AVC Продолжительность : 1 ч. 50 м. Битрейт : 7500 Кбит/сек Ширина : 1916 пикселей Высота : 1036 пикселей Соотношение сторон : 1,85:1 Режим частоты кадров : Постоянный Частота кадров : 23,976 кадра/сек Цветовое пространство : YUV Субдискретизация насыщенности : 4:2:0 Битовая глубина : 8 бит Тип развёртки : Прогрессивная Бит/(Пиксели*Кадры) : 0.158 Размер потока : 5,66 Гбайт (76%) Заголовок : -=MediaClub-kaspr=- Библиотека кодирования : x264 core 142 r2409kMod d6b4e63 Настройки программы : cabac=1 / ref=4 / deblock=1:-3:-3 / analyse=0x3:0x113 / me=umh / subme=11 / psy=1 / fade_compensate=0.00 / psy_rd=1.00:0.20 / mixed_ref=1 / me_range=32 / chroma_me=1 / trellis=2 / 8x8dct=1 / cqm=0 / deadzone=21,11 / fast_pskip=0 / chroma_qp_offset=-3 / threads=12 / lookahead_threads=3 / sliced_threads=0 / nr=0 / decimate=0 / interlaced=0 / bluray_compat=0 / constrained_intra=0 / fgo=0 / bframes=10 / b_pyramid=2 / b_adapt=2 / b_bias=0 / direct=3 / weightb=1 / open_gop=0 / weightp=2 / keyint=240 / keyint_min=23 / scenecut=40 / intra_refresh=0 / rc=2pass / mbtree=0 / bitrate=7500 / ratetol=1.0 / qcomp=0.60 / qpmin=0 / qpmax=69 / qpstep=4 / cplxblur=20.0 / qblur=0.5 / ip_ratio=1.40 / pb_ratio=1.30 / aq=2:1.00 Default : Да Forced : Да

Аудио #1: Идентификатор : 2 Формат : AC-3 Формат/Информация : Audio Coding 3 Расширение режима : CM (complete main) Параметр Endianness формата : Big Идентификатор кодека : A_AC3 Продолжительность : 1 ч. 50 м. Вид битрейта : Постоянный Битрейт : 224 Кбит/сек Каналы : 2 канала Расположение каналов : Front: L R Частота : 48,0 КГц Битовая глубина : 16 бит Метод сжатия : С потерями Размер потока : 178 Мбайт (2%) Заголовок : MVO-NTV+ Язык : Russian Default : Да Forced : Да

Аудио #2: Идентификатор : 3 Формат : AC-3 Формат/Информация : Audio Coding 3 Расширение режима : CM (complete main) Параметр Endianness формата : Big Идентификатор кодека : A_AC3 Продолжительность : 1 ч. 50 м. Вид битрейта : Постоянный Битрейт : 192 Кбит/сек Каналы : 2 канала Расположение каналов : Front: L R Частота : 48,0 КГц Битовая глубина : 16 бит Метод сжатия : С потерями Размер потока : 152 Мбайт (2%) Заголовок : MVO-ORT Язык : Russian Default : Нет Forced : Нет

Аудио #3: Идентификатор : 4 Формат : AC-3 Формат/Информация : Audio Coding 3 Расширение режима : CM (complete main) Параметр Endianness формата : Big Идентификатор кодека : A_AC3 Продолжительность : 1 ч. 50 м. Вид битрейта : Постоянный Битрейт : 192 Кбит/сек Каналы : 2 канала Расположение каналов : Front: L R Частота : 48,0 КГц Битовая глубина : 16 бит Метод сжатия : С потерями Размер потока : 152 Мбайт (2%) Заголовок : DVO-1+1 Язык : Ukrainian Default : Нет Forced : Нет

Аудио #4: Идентификатор : 5 Формат : DTS Формат/Информация : Digital Theater Systems Режим : 16 Параметр Endianness формата : Big Идентификатор кодека : A_DTS Продолжительность : 1 ч. 50 м. Вид битрейта : Постоянный Битрейт : 1509 Кбит/сек Каналы : 6 каналов Расположение каналов : Front: L C R, Side: L R, LFE Частота : 48,0 КГц Битовая глубина : 24 бит Метод сжатия : С потерями Размер потока : 1,17 Гбайт (16%) Язык : English Default : Нет Forced : Нет


Скачать фильм Гарри и Хендерсоны (1987) через торрент. На этом данная статья подошла к завершению. Следите за обновлениями на нашем сайте. Получить дополнительную информацию, а также задать свои вопросы можно в комментариях.


Статьи по теме