Джек Медвежонок скачать торрент

Уважаемый гость, на данной странице Вам доступен материал по теме: Джек Медвежонок скачать торрент. Скачивание возможно на компьютер и телефон через торрент, а также сервер загрузок по ссылке ниже. Рекомендуем также другие статьи из категории «Торренты».

Джек Медвежонок скачать торрент.rar
Закачек 1523
Средняя скорость 9272 Kb/s


Джек Медвежонок скачать торрент

Год выхода: 1993

Страна: США

Оригинальное название: Jack the Bear

Возраст: зрителям, достигшим 16 лет

Продолжительность: 95 мин. / 01:35

Скачать фильм «Джек-медведь» через торрент бесплатно

Джек-медведь / Jack the Bear (1993) HDTVRip 720p от Brazzass .torrent [Информация о файле (нажмите для просмотра)]

Перевод: Профессиональный (многоголосый закадровый) — 1 канал

Качество: HDTVRip 720p

Видео: Формат: MKV — 1280×720, 25 fps, 6000 kbps

Звук: MP2, 2 ch, 192 kbps

Джек-медведь / Jack the Bear (1993) HDTVRip | P .torrent [Информация о файле (нажмите для просмотра)]

Перевод: Профессиональный (многоголосый закадровый) — 1 канал

Видео: 720×400, (16:9), XviD, 1914 Кбит/сек, 25,000 кадров/сек

Аудио №1: AC3, 192 Кбит/сек, 2 канала, 48,0 КГц

Видео: Идентификатор : 0 Формат : MPEG-4 Visual Профиль формата : Advanced Simple@L5 Параметр BVOP формата : 1 Параметр QPel формата : Нет Параметр GMC формата : Без точки перехода Параметр матрицы формата : Выборочная Идентификатор кодека : XVID Идентификатор кодека/Подсказка : XviD Продолжительность : 1 ч. 32 м. Битрейт : 1914 Кбит/сек Ширина : 720 пикселей Высота : 400 пикселей Соотношение сторон : 16:9 Частота кадров : 25,000 кадров/сек Цветовое пространство : YUV Субдискретизация насыщенности : 4:2:0 Битовая глубина : 8 бит Тип развёртки : Прогрессивная Метод сжатия : С потерями Бит/(Пиксели*Кадры) : 0.266 Размер потока : 1,24 Гбайт (90%) Библиотека кодирования : XviD 65

Аудио: Идентификатор : 1 Формат : AC-3 Формат/Информация : Audio Coding 3 Расширение режима : CM (complete main) Параметр Endianness формата : Big Идентификатор кодека : 2000 Продолжительность : 1 ч. 32 м. Вид битрейта : Постоянный Битрейт : 192 Кбит/сек Каналы : 2 канала Расположение каналов : Front: L R Частота : 48,0 КГц Метод сжатия : С потерями Размер потока : 127 Мбайт (9%) Выравнивание : Разделение по промежуткам Продолжительность промежутка : 40 мс. (1,00 видеокадр) Время предзагрузки промежутка : 500 мс. Заголовок : Профессиональный (многоголосый закадровый) 1 канал


Скачать фильм Джек-медведь (1993) через торрент. На этом данная статья подошла к завершению. Следите за обновлениями на нашем сайте. Получить дополнительную информацию, а также задать свои вопросы можно в комментариях.


Статьи по теме