Дядя Миша мультфильм торрент

Уважаемый гость, на данной странице Вам доступен материал по теме: Дядя Миша мультфильм торрент. Скачивание возможно на компьютер и телефон через торрент, а также сервер загрузок по ссылке ниже. Рекомендуем также другие статьи из категории «Торренты».

Дядя Миша

Год выхода: 1970

Страна: СССР

Режиссер: Юрий Прытков

Оригинальное название:

Возраст: для любой зрительской аудитории

Продолжительность: 9 мин.

Скачать мультфильм «Дядя Миша» через торрент бесплатно

Баранкин, будь человеком! Дядя Миша. Ивашка из Дворца пионеров. Про Сидорова Вову. (1963-1985) DVDRip от New-Team .torrent [Информация о файле (нажмите для просмотра)]

Перевод: не требуется

Видео: 688×528 (4:3), 25 fps, XviD

1916 kbps avg, 0.211 bit/pixel

Аудио: 48 kHz, AC3, 2 ch, 192.00 kbps

Видео: Идентификатор : 0 Формат : MPEG-4 Visual Профиль формата : Advanced Simple@L5 Параметр BVOP формата : 1 Параметр QPel формата : Нет Параметр GMC формата : Без точки перехода Параметр матрицы формата : Выборочная Идентификатор кодека : XVID Идентификатор кодека/Подсказка : XviD Продолжительность : 20 м. Битрейт : 1916 Кбит/сек Ширина : 688 пикселей Высота : 528 пикселей Соотношение сторон : 4:3 Частота кадров : 25,000 кадров/сек Цветовое пространство : YUV Субдискретизация насыщенности : 4:2:0 Битовая глубина : 8 бит Тип развёртки : Прогрессивная Метод сжатия : С потерями Бит/(Пиксели*Кадры) : 0.211 Размер потока : 277 Мбайт (90%) Библиотека кодирования : XviD 65

Аудио: Идентификатор : 1 Формат : AC-3 Формат/Информация : Audio Coding 3 Расширение режима : CM (complete main) Идентификатор кодека : 2000 Продолжительность : 20 м. Вид битрейта : Постоянный Битрейт : 192 Кбит/сек Каналы : 2 канала Расположение каналов : Front: L R Частота : 48,0 КГц Битовая глубина : 16 бит Метод сжатия : С потерями Размер потока : 27,8 Мбайт (9%) Выравнивание : Разделение по промежуткам Продолжительность промежутка : 40 мс. (1,00 видеокадр) Время предзагрузки промежутка : 500 мс


Скачать фильм Дядя Миша (1970) через торрент. На этом данная статья подошла к завершению. Следите за обновлениями на нашем сайте. Получить дополнительную информацию, а также задать свои вопросы можно в комментариях.


Статьи по теме