Creedence Clearwater Revival торрент

Уважаемый гость, на данной странице Вам доступен материал по теме: Creedence Clearwater Revival торрент. Скачивание возможно на компьютер и телефон через торрент, а также сервер загрузок по ссылке ниже. Рекомендуем также другие статьи из категории «Торренты».

Creedence Clearwater Revival торрент.rar
Закачек 3766
Средняя скорость 6010 Kb/s


Creedence Clearwater Revival торрент

Добавлено: 02 апр 2016

Creedence || Discography || Год: 1968-1972 || Жанр: Rock, Rock&Roll, Psychedelic_Rock

Страна: USA || Время: 05:42:43 || Ф/Кодек: FLAC || Битрейт: Lossless || Тип: image + .cue

Вашему Вниманию

— представлена дискография, старого доброго коллектива: Creedence Clearwater Revival , («Вера оживления чистой воды» — сокращённо CCR, часто Creedence) — американская рок-группа, образовавшаяся в 1967 году и за пять лет существования добившаяся всемирного успеха и признания критиками. CCR, возникшие в Сан-Франциско, с самого начала находились под влиянием свомп-блюза. В ранних песнях («Born On The Bayou» и др.) CCR создали своего рода легенду «простых парней со старого доброго американского Юга», которой соответствовали преднамеренно смазанное произношение вокалиста Джона Фогерти и сценический образ музыкантов. В общем ряду групп «классического рока» ансамбль, кроме того, выделялся внешне простыми, но мастерски стилизованными текстами, насыщенными социальными наблюдениями и политическими заявлениями, в частности — о вьетнамской войне («Fortunate Son», «Have You Ever Seen The Rain?»).

1968 Creedence Clearwater Revival

Страна-производитель диска: Russia (Unofficial Release)

Издание (Лейбл): Fantasy, Victor — VICP 60538

01. I Put a Spell on You (04:33)

02. The Working Man (03:05)

04. Ninety-Nine and a Half (Won’t Do) (03:40)

05. Get Down Woman (03:10)

06. Porterville (02:23)

08. Walk on the Water (04:39)

1969 Bayou Country

Страна-производитель диска: UK

Издание (Лейбл): Fantasy — CDFE 502

01. Born On The Bayou (05:15)

02. Bootleg (03:01)

03. Graveyard Train (08:37)

04. Good Golly Miss Molly (02:44)

05. Penthouse Pauper (03:40)

06. Proud Mary (03:08)

07. Keep On Chooglin’(07:40)

1969 Green River

Страна-производитель диска: Russia (Unofficial Release)

Издание (Лейбл): Fantasy, Victor — VICP 60540

01. Green River (02:37)

02. Commotion (02:45)

03. Tombstone Shadow (03:40)

04. Wrote a Song for Everyone (04:59)

05. Bad Moon Rising (02:23)

07. Cross-Tie Walker (03:20)

08. Sinister Purpose (03:22)

09. Night Time Is the Right Time (03:07)

1969 Willy And The Poorboys

Страна-производитель диска: Russia (Unofficial Release)

Издание (Лейбл): Fantasy, Victor — VICP 60541

01. Down on the Corner (02:47)

02. It Came Out of the Sky (02:56)

03. Cotton Fields (02:54)

04. Poorboy Shuffle (02:27)

05. Feelin’ Blue (05:05)

06. Fortunate Son (02:21)

07. Don’t Look Now (It Ain’t You or Me) (02:12)

08. The Midnight Special (04:14)

09. Side O’ the Road (03:26)

1970 Cosmo`s Factory

Страна-производитель диска: Russia (Unofficial Release)

Издание (Лейбл): Fantasy, Victor — VICP 60542

01. Ramble Tamble (07:12)

02. Before You Accuse Me (03:27)

03. Travelin’ Band (02:09)

04. Ooby Dooby (02:08)

05. Lookin’ Out My Back Door (02:34)

06. Run Through the Jungle (03:08)

07. Up Around the Bend (02:42)

08. My Baby Left Me (02:19)

09. Who’ll Stop the Rain (02:30)

10. I Heard It Through the Grapevine (11:09)

11. Long as I Can See the Light (03:33)

Страна-производитель диска: Russia (Unofficial Release)

Издание (Лейбл): Fantasy, Victor — VICP 60543

01. Pagan Baby (06:27)

02. Sailor’s Lament (03:50)

03. Chameleon (03:18)

04. Have You Ever Seen the Rain? (02:40)

05. (Wish I Could) Hideaway (03:47)

06. Born to Move (05:41)

07. Hey Tonight (02:44)

08. It’s Just a Thought (03:53)

10. Rude Awakening (Theme From) (06:22)

1972 Mardi Gras

Страна-производитель диска: UK

Издание (Лейбл): Fantasy — CDFE 513

01. Lookin’ for A Reason (03:28)

02. Take It Like A Friend (03:02)

03. Need Someone To Hold (03:02)

04. Tearin’ Up The Country (02:18)

05. Someday Never Comes (04:01)

06. What Are You Gonna Do? (02:55)

07. Sail Away (02:31)

08. Hello Mary Lou (02:16)

09. Door To Door (02:12)

10. Sweet Hitch-Hiker (02:56)

Лог создания рипа

Exact Audio Copy V0.99 prebeta 5 from 4. May 2009

EAC extraction logfile from 25. February 2010, 18:38

Creedence Clearwater Revival / Creedence Clearwater Revival

Used drive : TSSTcorpCD/DVDW SH-S183A Adapter: 1 ID: 0

Read mode : Secure

Utilize accurate stream : Yes

Defeat audio cache : Yes

Make use of C2 pointers : No

Read offset correction : 6

Overread into Lead-In and Lead-Out : No

Fill up missing offset samples with silence : Yes

Delete leading and trailing silent blocks : No

Null samples used in CRC calculations : Yes

Used interface : Installed external ASPI interface

Used output format : User Defined Encoder

Selected bitrate : 1024 kBit/s

Add ID3 tag : No

Command line compressor : C:Program FilesExact Audio CopyFlacflac.exe

Additional command line options : -8 -V -T «ARTIST=%a» -T «TITLE=%t» -T «ALBUM=%g» -T «DATE=%y» -T «TRACKNUMBER=%n» -T «TOTALTRACKS=%x» -T «GENRE=%m» -T «ALBUM ARTIST=%v» -T «ALBUMARTIST=%v» -T «COMMENT=EAC V0.99 prebeta 5, Secure Mode, AccurateRip, FLAC -8

TOC of the extracted CD

Track | Start | Length | Start sector | End sector

1 | 0:00.37 | 4:33.38 | 37 | 20549

2 | 4:34.00 | 3:05.37 | 20550 | 34461

3 | 7:39.37 | 8:39.00 | 34462 | 73386

4 | 16:18.37 | 3:40.00 | 73387 | 89886

5 | 19:58.37 | 3:10.00 | 89887 | 104136

6 | 23:08.37 | 2:23.38 | 104137 | 114899

7 | 25:32.00 | 3:50.37 | 114900 | 132186

8 | 29:22.37 | 4:39.10 | 132187 | 153121

Range status and errors

Filename F:1968 CCR-Creedence Clearwater RevivalCdCreedence Clearwater Revival — Creedence Clearwater Revival.wav

Peak level 100.0 %

Range quality 100.0 %

Test CRC BBBBBE18

Copy CRC BBBBBE18

No errors occurred

Track 1 not present in database

Track 2 not present in database

Track 3 not present in database

Track 4 not present in database

Track 5 not present in database

Track 6 not present in database

Track 7 not present in database

Track 8 not present in database

None of the tracks are present in the AccurateRip database

End of status report

Отчёт по индексной карте cue.

REM DISCID 5C07F908

REM COMMENT «ExactAudioCopy v0.99pb5»

PERFORMER «Creedence Clearwater Revival»

TITLE «Creedence Clearwater Revival»

FILE «Creedence Clearwater Revival — Creedence Clearwater Revival.flac» WAVE

TITLE «I Put A Spell On You»

PERFORMER «Creedence Clearwater Revival»

INDEX 00 00:00:00

INDEX 01 00:00:37

TITLE «The Working Man»

PERFORMER «Creedence Clearwater Revival»

INDEX 00 04:31:43

INDEX 01 04:34:00

PERFORMER «Creedence Clearwater Revival»

INDEX 00 07:37:06

INDEX 01 07:39:37

TITLE «Ninety-Nine And A Half»

PERFORMER «Creedence Clearwater Revival»

INDEX 00 16:16:03

INDEX 01 16:18:37

TITLE «Get Down Woman»

PERFORMER «Creedence Clearwater Revival»

INDEX 00 19:55:56

INDEX 01 19:58:37

PERFORMER «Creedence Clearwater Revival»

INDEX 00 23:06:01

INDEX 01 23:08:37

PERFORMER «Creedence Clearwater Revival»

INDEX 00 25:29:36

INDEX 01 25:32:00

TITLE «Walk On The Water»

PERFORMER «Creedence Clearwater Revival»

INDEX 00 29:20:06

INDEX 01 29:22:37

Отчёт auCDtect Task manager:

DON’T MODIFY THIS FILE

PERFORMER: auCDtect Task Manager, ver. 1.6.0 RC1 build 1.6.0.1

Copyright (c) 2008-2010 y-soft. All rights reserved

ANALYZER: auCDtect: CD records authenticity detector, version 0.8.2

Copyright (c) 2004 Oleg Berngardt. All rights reserved.

Copyright (c) 2004 Alexander Djourik. All rights reserved.

FILE: Creedence Clearwater Revival — Creedence Clearwater Revival.flac

Size: 232390109 Hash: DFB0B955D506381B7A1144B2E2245B8E Accuracy: -m0


Creedence Clearwater Revival — Discography 7 альбомов (1968-1972) FLAC — Скачать торрент. На этом данная статья подошла к завершению. Следите за обновлениями на нашем сайте. Получить дополнительную информацию, а также задать свои вопросы можно в комментариях.


Статьи по теме