Бразилия 1985 скачать торрент

Уважаемый гость, на данной странице Вам доступен материал по теме: Бразилия 1985 скачать торрент. Скачивание возможно на компьютер и телефон через торрент, а также сервер загрузок по ссылке ниже. Рекомендуем также другие статьи из категории «Торренты».

Бразилия 1985 скачать торрент.rar
Закачек 2505
Средняя скорость 9808 Kb/s


Бразилия 1985 скачать торрент

Год выхода: 1985

Оригинальное название: Brazil

Возраст: зрителям, достигшим 16 лет

Продолжительность: 138 мин. / 02:18

Скачать фильм «Бразилия» через торрент бесплатно

Бразилия / Brazil (1985) BDRip-AVC от MediaClub | P, A, L1 | Театральная версия / Theatrical Cut .torrent [Информация о файле (нажмите для просмотра)]

Перевод: Профессиональный многоголосый, авторский одноголосый (Либергал), (Визгунов), (Гаврилов), любительский одноголосый (Лёша-прапорщик)

Кодек: MPEG-4 AVC

Видео: 3500 Кбит/с, 1024×556, 23.976 кадр/с

Аудио #1: Русский (AC3, 6 ch, 448 Кбит/с) / Профессиональный многоголосый (Позитив)

Аудио #2: Русский (AC3, 2 ch, 192 Кбит/с) / Профессиональный многоголосый (ТВ-3)

Аудио #3: Русский (AC3, 6 ch, 448 Кбит/с) / Авторский одноголосый (Либергал)

Аудио #4: Русский (AC3, 2 ch, 192 Кбит/с) / Авторский одноголосый (Визгунов)

Аудио #5: Русский (AC3, 2 ch, 192 Кбит/с) / Авторский одноголосый (Гаврилов)

Аудио #6: Русский (AC3, 6 ch, 448 Кбит/с) Любительский одноголосый (Лёша-прапорщик)

Аудио #7: Английский (AC3, 6 ch, 448 Кбит/с)

Субтитры: Русские, английские, английские (SDH)

Видео: Идентификатор : 1 Формат : AVC Формат/Информация : Advanced Video Codec Профиль формата : High@L4.1 Параметр CABAC формата : Да Параметр ReFrames формата : 9 кадров Идентификатор кодека : V_MPEG4/ISO/AVC Продолжительность : 2 ч. 11 м. Битрейт : 3500 Кбит/сек Ширина : 1024 пикселя Высота : 556 пикселей Соотношение сторон : 1,85:1 Режим частоты кадров : Постоянный Частота кадров : 23,976 кадра/сек Цветовое пространство : YUV Субдискретизация насыщенности : 4:2:0 Битовая глубина : 8 бит Тип развёртки : Прогрессивная Бит/(Пиксели*Кадры) : 0.256 Размер потока : 3,12 Гбайт (58%) Заголовок : Brazilija.1985.×264.BDRip.AVC.MediaClub Библиотека кодирования : x264 core 142 r2409+42 04be48a tMod [8-bit@4:2:0 X86] Настройки программы : cabac=1 / ref=9 / deblock=1:-2:-2 / analyse=0x3:0x133 / me=umh / subme=11 / psy=1 / fade_compensate=0.00 / psy_rd=1.00:0.15 / mixed_ref=1 / me_range=32 / chroma_me=1 / trellis=2 / 8x8dct=1 / cqm=0 / deadzone=21,11 / fast_pskip=0 / chroma_qp_offset=-3 / threads=6 / lookahead_threads=1 / sliced_threads=0 / nr=0 / decimate=0 / interlaced=0 / bluray_compat=0 / constrained_intra=0 / fgo=0 / bframes=8 / b_pyramid=2 / b_adapt=2 / b_bias=0 / direct=3 / weightb=1 / open_gop=0 / weightp=2 / keyint=240 / keyint_min=23 / scenecut=40 / intra_refresh=0 / rc=2pass / mbtree=0 / bitrate=3500 / ratetol=1.0 / qcomp=0.60 / qpmin=0:0:0 / qpmax=69:69:69 / qpstep=4 / cplxblur=20.0 / qblur=0.5 / ip_ratio=1.40 / pb_ratio=1.30 / aq=1:1.00 / aq-sensitivity=10.00 / aq-factor=1.00:1.00:1.00 / aq2=0 / aq3=0 Язык : English Default : Да Forced : Нет

Аудио #1: Идентификатор : 2 Формат : AC-3 Формат/Информация : Audio Coding 3 Расширение режима : CM (complete main) Параметр Endianness формата : Big Идентификатор кодека : A_AC3 Продолжительность : 2 ч. 11 м. Вид битрейта : Постоянный Битрейт : 448 Кбит/сек Каналы : 6 каналов Расположение каналов : Front: L C R, Side: L R, LFE Частота : 48,0 КГц Битовая глубина : 16 бит Метод сжатия : С потерями Размер потока : 422 Мбайт (8%) Заголовок : TRACK_01_MVO_RUS_Pozitiv Язык : Russian Default : Да Forced : Да

Аудио #2: Идентификатор : 3 Формат : AC-3 Формат/Информация : Audio Coding 3 Расширение режима : CM (complete main) Параметр Endianness формата : Big Идентификатор кодека : A_AC3 Продолжительность : 2 ч. 11 м. Вид битрейта : Постоянный Битрейт : 192 Кбит/сек Каналы : 2 канала Расположение каналов : Front: L R Частота : 48,0 КГц Битовая глубина : 16 бит Метод сжатия : С потерями Размер потока : 181 Мбайт (3%) Заголовок : TRACK_02_MVO_RUS_ТВ-3 Язык : Russian Default : Нет Forced : Нет

Аудио #3: Идентификатор : 4 Формат : AC-3 Формат/Информация : Audio Coding 3 Расширение режима : CM (complete main) Параметр Endianness формата : Big Идентификатор кодека : A_AC3 Продолжительность : 2 ч. 11 м. Вид битрейта : Постоянный Битрейт : 448 Кбит/сек Каналы : 6 каналов Расположение каналов : Front: L C R, Side: L R, LFE Частота : 48,0 КГц Битовая глубина : 16 бит Метод сжатия : С потерями Размер потока : 422 Мбайт (8%) Заголовок : TRACK_03_AVO_RUS_LIBERGAL Язык : Russian Default : Нет Forced : Нет

Аудио #4: Идентификатор : 5 Формат : AC-3 Формат/Информация : Audio Coding 3 Расширение режима : CM (complete main) Параметр Endianness формата : Big Идентификатор кодека : A_AC3 Продолжительность : 2 ч. 11 м. Вид битрейта : Постоянный Битрейт : 192 Кбит/сек Каналы : 2 канала Расположение каналов : Front: L R Частота : 48,0 КГц Битовая глубина : 16 бит Метод сжатия : С потерями Размер потока : 181 Мбайт (3%) Заголовок : TRACK_04_AVO_RUS_VIZGUNOV Язык : Russian Default : Нет Forced : Нет

Аудио #5: Идентификатор : 6 Формат : AC-3 Формат/Информация : Audio Coding 3 Расширение режима : CM (complete main) Параметр Endianness формата : Big Идентификатор кодека : A_AC3 Продолжительность : 2 ч. 11 м. Вид битрейта : Постоянный Битрейт : 192 Кбит/сек Каналы : 2 канала Расположение каналов : Front: L R Частота : 48,0 КГц Битовая глубина : 16 бит Метод сжатия : С потерями Размер потока : 181 Мбайт (3%) Заголовок : TRACK_05_AVO_RUS_GAVRILOV Язык : Russian Default : Нет Forced : Нет

Аудио #6: Идентификатор : 7 Формат : AC-3 Формат/Информация : Audio Coding 3 Расширение режима : CM (complete main) Параметр Endianness формата : Big Идентификатор кодека : A_AC3 Продолжительность : 2 ч. 11 м. Вид битрейта : Постоянный Битрейт : 448 Кбит/сек Каналы : 6 каналов Расположение каналов : Front: L C R, Side: L R, LFE Частота : 48,0 КГц Битовая глубина : 16 бит Метод сжатия : С потерями Размер потока : 422 Мбайт (8%) Заголовок : TRACK_06_VO_RUS Язык : Russian Default : Нет Forced : Нет

Аудио #7: Идентификатор : 8 Формат : AC-3 Формат/Информация : Audio Coding 3 Расширение режима : CM (complete main) Параметр Endianness формата : Big Идентификатор кодека : A_AC3 Продолжительность : 2 ч. 11 м. Вид битрейта : Постоянный Битрейт : 448 Кбит/сек Каналы : 6 каналов Расположение каналов : Front: L C R, Side: L R, LFE Частота : 48,0 КГц Битовая глубина : 16 бит Метод сжатия : С потерями Размер потока : 422 Мбайт (8%) Заголовок : TRACK_07_ORIGINAL_ENG Язык : English Default : Нет Forced : Нет


Скачать фильм Бразилия (1985) через торрент. На этом данная статья подошла к завершению. Следите за обновлениями на нашем сайте. Получить дополнительную информацию, а также задать свои вопросы можно в комментариях.


Статьи по теме