713 Й Просит Посадку скачать торрент

Уважаемый гость, на данной странице Вам доступен материал по теме: 713 Й Просит Посадку скачать торрент. Скачивание возможно на компьютер и телефон через торрент, а также сервер загрузок по ссылке ниже. Рекомендуем также другие статьи из категории «Торренты».

713 Й Просит Посадку скачать торрент.rar
Закачек 1241
Средняя скорость 1628 Kb/s


713-й просит посадку (1962) DVDRip

Добавлено: 05 июл 2014, 23:36

Русское название: 713-й просит посадку

Год выпуска: 1962

Жанр: Триллер, Драма

Описание фильма:

Экипаж самолета, совершающего трансатлантический перелет, таинственным образом

усыплен, и управляемому автопилотом самолету стала угрожать опасность. Первый салон

был свободен — в последний момент задержался вылет советской делегации. Во втором

салоне находились: миссионер, солдат морской пехоты, адвокат, известная киноактриса с

сыном, врач Рихард Гюнтер, представившийся ювелиром, и другие. Опасность сплотила ни в

чем не повинных людей. Вскоре была налажена связь с аэродромом и лайнер, управляемый

юристом, благополучно совершил посадку.

Режиссер: Григорий Никулин (старший)

Актеры: Владимир Честноков, Отар Коберидзе, Лев Круглый, Людмила Абрамова, Николай Корн, Ефим Копелян, Людмила Шагалова, Иосиф Конопацкий, Зана Занони, Нонна Тен, Александр Барушной, Оскар Линд, Рэм Лебедев, Владимир Высоцкий, Эве Киви, Владимир Марьев, Александр Момбели, Юрий Дедович, Юрий Енакян, Аркадий Волгин, Ирина Губанова, Константин Худяков, Александр Виолинов, Сергей Голованов, Нина Агапова, Аркадий Оберберг, Лиля Мурадова

Видеокодек: Xvid

Битрейт видео:

Размер кадра: 720×552

Качество видео: DVDRip

Аудиокодек: MP3

Битрейт аудио: 64,0 Кбит/сек

Полное имя : G:\new 092012\!102\713-й просит посадку\713.prosit.posadku.avi

Формат/Информация : Audio Video Interleave

Размер файла : 1,07 Гбайт

Продолжительность : 1 ч. 13 м.

Общий поток : 2074 Кбит/сек

Программа кодирования : Lavf52.58.0

Библиотека кодирования : VirtualDub build 33769/release

Формат : MPEG-4 Visual

Профиль формата : Advanced Simple@L5

Параметр BVOP формата : 3

Параметр QPel формата : Нет

Параметр GMC формата : Без точки перехода

Параметр матрицы формата : Default (H.263)

Идентификатор кодека : XVID

Идентификатор кодека/Подсказка : XviD

Продолжительность : 1 ч. 13 м.

Битрейт : 2000 Кбит/сек

Ширина : 720 пикселей

Высота : 552 пикселя

Соотношение сторон : 4:3

Частота кадров : 25,000 кадров/сек

Цветовое пространство : YUV

Субдискретизация насыщенности : 4:2:0

Битовая глубина : 8 бит

Тип развёртки : Прогрессивная

Метод сжатия : С потерями

Размер потока : 1,03 Гбайт (96%)

Библиотека кодирования : XviD 1.2.1 (UTC 2008-12-04)

Формат : MPEG Audio

Версия формата : Version 1

Профиль формата : Layer 3

Идентификатор кодека : 55

Идентификатор кодека/Подсказка : MP3

Продолжительность : 1 ч. 13 м.

Вид битрейта : Постоянный

Битрейт : 64,0 Кбит/сек

Каналы : 1 канал

Частота : 48,0 КГц

Метод сжатия : С потерями

Задержка видео : 100 мс.

Размер потока : 33,7 Мбайт (3%)

Выравнивание : Разделение по промежуткам

Продолжительность промежутка : 40 мс. (1,00 видеокадр)


713-й просит посадку (1962) DVDRip скачать через торрент бесплатно. На этом данная статья подошла к завершению. Следите за обновлениями на нашем сайте. Получить дополнительную информацию, а также задать свои вопросы можно в комментариях.


Статьи по теме